以后职位:
1分快三 » 剧情片 » 阿飞物语

阿飞物语_非推行董事Neds.2010.1080p.BluRay.x264.DTS-FGT7.64GB

阿飞物语_非推行董事 Neds.2010.1080p.BluRay.x264.DTS-FGT 7.64GB

演员:Steven Robertson Douglas Russell Martin Bell

导演: Peter Mullan 地域: 英国,法国,意大利集数: 0集年月: 2010时间: 124分钟豆瓣评分: 7.6

《阿飞物语》海报

  《阿飞物语》以70年月的格拉斯哥为配景,Ned是那里人用来指"没修养的小阿飞"的骂人的话。影片主人条约翰是位上劲少年,但蹊径不是他自己能够选择。关于导演彼得·穆兰来讲,题材很小我,但着实不是是一部自传片子。

  影片发生在七十年月的苏格兰格拉斯加,讲述了一群小阿飞们的帮派生涯,关于导演彼得·穆兰来讲,题材很小我,但着实不是是一部自传片子。

◎幕后制造

  影片在2010年西班牙圣巴斯蒂安片子节摘得最好影片金贝壳与最好男演员两项大奖。该片是穆兰继《青楼姐妹花》摘得威尼斯金狮后八年的首部制造,此前曾遗憾落选威尼斯,在多伦多也备受好评。饰演主人条约翰的康纳·麦卡荣(Connor McCarron)虽是第一次演戏,但像《这就是英格兰》中的托马斯·图尔格斯一样捉住了一切人的眼球,被授予了影帝大奖,而导演彼得·穆拉也继肯·洛奇1分快三、西恩·迈德斯以后再次为英国的工人阶级在国际影坛发声。

  彼得·穆兰身世在五十年月末一个有八个孩子的工人阶级家庭,他的父亲是个酒鬼,至于他自己能否在青少年时成为一个"阿飞"我们不得而知,由于影片着实不完全是一部自传。仰仗肯·洛奇我的名字是乔》在戛纳摘得最好男演员的穆兰,还出演过90年月中兴的苏格兰片子的几部经典之作,网罗《浅坟》、《斗胆的心》和《猜火车》,他在2002年执导的影片《青楼姐妹花》一举摘得柏林片子节的金狮奖,而这第二部片子距离其时曾经有八年。这时间间代他收到过许多来自好莱坞的剧本,但大多让他无动于中,感兴趣的诸如《时间旅行者的妻子》看法也与制片人天差地别,他还曾盘算执导过一部由已故男演员希斯·莱精彩演的《安娜·卡列琳娜》,但都事实无果,在作为一名导演而不是演员方面,穆兰不愿意让步。《阿飞物语》反映了他印象中的七十年月,从他关于谁人时代的bbc番笕剧、肯·洛奇、阿兰·克拉克、迈克·李以致是佩金帕(《稻草狗》)的影象我们可以推知这是一部怎样的片子。

◎译 名 阿飞物语/非推行董事

◎片 名 Neds

◎年 代 2010

◎国 家 英国/法国/意大利

◎类 别 剧情

◎语 言 英语

◎上映日期 2010

◎IMDb评分 7.0/10 from 6,455 users

◎豆瓣评分 7.6/10 from 147 users

◎片 长 124分钟

1分快三◎导 演 彼得·穆兰 Peter Mullan

◎主 演 史蒂文·罗伯特森 Steven Robertson

1分快三Douglas Russell

1分快三Martin Bell

Video

ID : 1

1分快三Format : AVC

Format/Info : Advanced Video Codec

1分快三Format profile : High@L4.1

Format settings, CABAC : Yes

1分快三Format settings, ReFrames : 5 frames

Codec ID : V_MPEG4/ISO/AVC

1分快三Duration : 2h 3mn

Bit rate : 8 073 Kbps

1分快三Width : 1 920 pixels

1分快三Height : 816 pixels

1分快三Display aspect ratio : 2.35:1

Frame rate mode : Constant

Frame rate : 23.976 fps

Color space : YUV

Chroma subsampling : 4:2:0

Bit depth : 8 bits

1分快三Scan type : Progressive

1分快三Bits/(Pixel*Frame) : 0.215

Stream size : 6.83 GiB (89%)

1分快三Writing library : x264 core 115 r1995 c1e60b9

1分快三Encoding settings : cabac=1 / ref=5 / deblock=1:0:0 / analyse=0x3:0x133 / me=umh / subme=7 / psy=1 / psy_rd=1.00:0.00 / mixed_ref=1 / me_range=16 / chroma_me=1 / trellis=1 / 8x8dct=1 / cqm=0 / deadzone=21,11 / fast_pskip=0 / chroma_qp_offset=-2 / threads=12 / sliced_threads=0 / nr=0 / decimate=1 / interlaced=0 / bluray_compat=0 / constrained_intra=0 / bframes=3 / b_pyramid=2 / b_adapt=1 / b_bias=0 / direct=1 / weightb=1 / open_gop=0 / weightp=2 / keyint=250 / keyint_min=23 / scenecut=40 / intra_refresh=0 / rc_lookahead=40 / rc=2pass / mbtree=1 / bitrate=8073 / ratetol=1.0 / qcomp=0.60 / qpmin=0 / qpmax=69 / qpstep=4 / cplxblur=20.0 / qblur=0.5 / ip_ratio=1.40 / aq=1:1.00

Language : English

1分快三Default : Yes

1分快三Forced : No

Audio

ID : 2

1分快三Format : DTS

1分快三Format/Info : Digital Theater Systems

Mode : 16

Format settings, Endianness : Big

Codec ID : A_DTS

1分快三Duration : 2h 3mn

1分快三Bit rate mode : Constant

Bit rate : 768 Kbps

1分快三Channel(s) : 6 channels

Channel positions : Front: L C R, Side: L R, LFE

Sampling rate : 48.0 KHz

1分快三Bit depth : 24 bits

Compression mode : Lossy

Delay relative to video : 11ms

1分快三Stream size : 680 MiB (9%)

Language : English

Default : Yes

Forced : No

  温馨提醒:您正在浏览的"《阿飞物语》BT种子下载"的剧情简介来自于[www.92np.com-就爱那片儿],假定您喜欢本站,请推荐给您的同伙,谢谢您的支持! 最后更新:2015年08月22日

阿飞物语片子下载:

提醒:推荐应用BitComet、Utorrent、QQ旋风、迅雷下载阿飞物语。喜幸亏线看的同伙可以把种子上传到百度网盘、115网盘,离线下载完手电机脑都可以在线看。

阿飞物语片子议论

更多精彩片子